The Weeknd
















13233c7ff6bd376cf9edb1820f46f22.jpg (152.93 KB, 下载次数: 0)

下载附件



7小时前 上传














22142c45f11ea323ff7256ae6ea14e0.jpg (91.91 KB, 下载次数: 0)

下载附件



7小时前 上传










专辑介绍:

★全球唯一黑潮之王、音乐魔人威肯,超级碗中场秀特别专辑降临

★空降公告牌亚军宝座、节奏布鲁斯嘻哈榜冠军,同时荣登英国金榜亚军

★收录"Can`t Feel My Face"、"Starboy"、"Earned It"、" Blinding Lights "等18首极金曲

滚石杂志曾经称他为「下一个迈克尔杰克逊」、华尔街日报过去盛讚他是「节奏布鲁斯界的黑暗骑士(Dark Knight of R&B)」,他成功融合PBR&B、POP、Disco、Funk等曲风,打造了专属于自己独步全球的音乐,并与各天王天后平起平坐,他就是音乐魔人 威肯 (The Weeknd),而如今他超越所有名号,在乐坛荣登「黑潮之王」的宝座,开启了他的音乐王朝盛世。

本名Abel Makkonen Tesfaye的The Weeknd,靠著生涯【Kiss Land】、【Beauty Behind the Madness】、【Starboy】、【After Hours 】等4张专辑,以及EP【My Dear Melancholy,】,还有Mixtape【House of Balloons】、【Thursday】、【Echoes of Silence】,再加上多首公告牌冠军单曲,累积了全球破7500万张的专辑与单曲销售纪录,成为21世纪以来最受瞩目的超级巨星之一,不只如此,他还拥有3座个莱美奖、8座公告牌音乐大奖、5座全美音乐奖、2座MTV音乐大奖、9座朱诺音乐奖,更曾被提名奥斯卡大奖,堪称当代黑人音乐的最高峰,不断刷新纪录;更难能可贵的是,The Weeknd成为史上第一位出任美国超级碗中场秀(Superbowl)的加拿大人,在2021年2月8日,全球瞩目的情况之下,为求完美演出的The Weeknd,自掏腰包砸下700万美元,打造他心目中完美的演出情境,并且成功缔造了被誉为是有史以来最精采的超级碗中场秀之一,而他的名字也将永远与这项盛事永久被传颂。在超级碗中场秀的演出之前,The Weeknd就以出道十年的作品集结为此张特别专辑当作暖身,集结18首The Weeknd过去十年精华的【The Highlights】。

【The Highlights】一释出便空降了公告牌主流专辑榜亚军宝座、节奏布鲁斯嘻哈榜冠军,并且还登上英国金榜亚军,也在全球超过15国内登上排行榜。【The Highlights】一共收录了18首歌曲,而这18首歌曲来自于过去十年The Weeknd的所有录音室专辑以及曾参与演出的作品,除了新专辑【After Hours】中的"Save Your Tears"、"Blinding Lights"、"In Your Eyes"、"Heartless"、"After Hours"等歌曲之外,还包括了历年的万世经典曲目"Can`t Feel My Face"、"I Feel It Coming (featuring Daft Punk)"、"Starboy" (featuring Daft Punk)、"Often"、 "The Hills"、"Earned It"等歌曲,除此之外,更收录了与说唱救世主Kendrick Lamar合作的"Pray for Me"、与流行天后Ariana Grande激情对唱的"Love Me Harder"等两首歌曲,可以说是把The Weeknd过去十年最精采与颠峰的时刻完美收录。

见证黑潮之王The Weeknd的成王之路,唯有【The Highlights】是最佳的注解。这张作品是展示一些The Weeknd最著名作品的方式。虽然这不是一张“精选集”专辑,但它确实为新听众提供了一个丰富的机会,让他们可以一睹这位标志性艺术家最优秀、最受欢迎的作品。




专辑曲目:

01. Save Your Tears
02. Blinding Lights
03. In Your Eyes
04. Can't Feel My Face
05. I Feel It Coming (featuring Daft Punk)
06. Starboy (featuring Daft Punk)
07. Pray For Me (featuring Kendrick Lamar)
08. Heartless
09. Often
10. The Hills
11. Call Out My Name
12. Die For You
13. Earned It
14. Love Me Harder (with Ariana Grande)
15. Acquainted
16. Wicked Games
17. The Morning
18. After Hours




Exact Audio Copy V1.3 from 2. September 2016

EAC 抓取日志文件从25. 四月 2021, 14:03

The Weeknd / The Highlights

使用驱动器:ASUS SDRW-08D2S-U Adapter: 1ID: 0

读取模式 : 可靠Secure
使用精确流 : 是
清空音频缓存 : 是
使用 C2 指示器 : 否

读取偏移校正: : 0
读取 Lead-In 和 Lead-Out : 否
用静音填充抓取中丢失偏移的采样 : 是
去除首尾静音块 : 否
在CRC 计算中使用了空样本 : 是
已用接口 : Win NT 及 2000 本地 Win32 接口

所用输出模式: : 内部 WAV 函数
样本格式 : 44.100 Hz; 16 Bit; 立体声


已抓取 CD 的 TOC

音轨 | 起始 | 长度 |起始扇区|结束扇区
--------------------------------------------
1 |0:00.00 |3:37.57 | 0 |16331
2 |3:37.57 |3:22.13 |16332 |31494
3 |6:59.70 |3:59.49 |31495 |49468
4 | 10:59.44 |3:35.49 |49469 |65642
5 | 14:35.18 |4:31.23 |65643 |85990
6 | 19:06.41 |3:52.44 |85991 | 103434
7 | 22:59.10 |3:33.41 | 103435 | 119450
8 | 26:32.51 |3:20.30 | 119451 | 134480
9 | 29:53.06 |4:11.18 | 134481 | 153323
10 | 34:04.24 |4:04.31 | 153324 | 171654
11 | 38:08.55 |3:50.38 | 171655 | 188942
12 | 41:59.18 |4:22.29 | 188943 | 208621
13 | 46:21.47 |4:39.64 | 208622 | 229610
14 | 51:01.36 |3:58.13 | 229611 | 247473
15 | 54:59.49 |5:51.01 | 247474 | 273799
16 | 60:50.50 |5:27.27 | 273800 | 298351
17 | 66:18.02 |5:17.60 | 298352 | 322186
18 | 71:35.62 |6:01.12 | 322187 | 349273


范围状态及错误

已选择范围

文件名 C:\Users\12751\Desktop\The Weeknd - The Highlights.wav

峰值电平 100.0 %
抓取速度 5.2 X
范围质量 99.9 %
复制 CRC B3304579
复制成功

没有错误发生

状态报告结尾

==== 记录校验日志 B54F2FA3FF0CE06C5D3CBA31C2CBD20707230BAD2C75DFABCABAC16ECCC52DF9 ====





专辑为自购,压缩包有封面,碟片的扫描图片。




链接:包年会员可查看
 
 
由于百度网盘原因,易导致资源失效,您可以在页面上提交失效申报,我们尽量修复!
网易&QQ音乐文件解锁 /