Lorde
















909bff64bcef5a85f9116c83a36a7a2.jpg (168 KB, 下载次数: 0)

下载附件



2022-11-13 08:18 上传














0f0919b7935368572530e0aff930b21.jpg (263.09 KB, 下载次数: 0)

下载附件



2022-11-13 08:18 上传











专辑介绍:

★2013年底乐坛震撼弹 来自新西兰16岁天才新人

★征服全球首支单曲“Royals”称霸告示牌单曲榜7週冠军及英国金榜冠军,入选「Samsung Galaxy Note 3」手机最新广告曲

★时代杂志评选为2013年度最具影响力青少年新势力

一张毫无瑕疵的专辑!

——Billboard

她混融强而有力的流行声韵和深具前瞻性的独特创作风格,Lorde注定成为闪耀之星。

——NME

就像是Lana Del Rey从Vampire Weekend首张专辑中采撷文字技巧,或是Lily Allen散发着Sofia Coppola的低调优雅--为懵懂青少年打造甜而微苦的流行音乐。

——Q杂志

新西兰唱作才女Lorde初出道即引发全球关注,获选为MTV欧洲音乐大奖“新西兰最佳新人”,席卷第56届格莱美奖“年度唱片”、“年度单曲”、“最佳流行独唱”以及“最佳流行演唱专辑”4项重头提名肯定,告示牌读者票选音乐奖“最佳新人”与人民选择奖“最受欢迎突破艺人”提名,年仅16岁拥有超龄声线,乐坛重磅新势力。出道大碟空降美国告示牌流行榜Top3、连摘摇滚榜+另类榜冠军,新西兰+澳大利亚冠军,加拿大亚军,英国Top4。征服全球首支单曲“Royals”称霸Billboard告示牌单曲榜9周冠军及英国单曲榜冠军,入选“Samsung Galaxy Note 3”手机最新广告曲。

一开始大家猜她25岁,但她只有16岁。她有著最轻柔最纯淨的歌声,唱著最一针见血的歌词;来自新西兰小镇,仍需要父母当监护人的女孩 - Ella Yelich-O'Connor,唱出探索灵魂的歌声,写出无比诗意及发人深省的词句。彷彿可以看穿人心的眼神与神秘的气质,让她显得如此耀眼又独特,正如她的艺名「Lorde」字意取自「Lord(领主)」,Lorde已经在流行乐坛开始展现她的领袖之风。

Lorde对于文字运用的敏锐与精准度遗传自诗人母亲Sonja Yelich,许多媒体认为她的创作才情可以比美Adele与Lana Del Rey。12岁时,友人父亲将Lorde翻唱歌曲的Demo和录影带寄到环球唱片的A&R部门;13岁,在家人陪同下签定唱片合约;大约13或14岁开始写歌,并利用擅长的吉他创作。虽然她的音乐主要架构在流行电子领域,Lorde却是个不折不扣的老灵魂乐爱好者,视Etta James和Otis Redding为偶像,也从父母最爱的Cat Stevens、Neil Young、Fleetwood Mac唱片中获取大量养份。

首张出道专辑【Pure Heroine】以新人之姿空降美国流行榜第3名、纽西兰&澳洲冠军、加拿大亚军,英国金榜也晋级TOP4。很有想法的Lorde刻意贯彻歌与歌之间的概念,诚实传达内心的阳光与阴霾,坦率、自然、不做作。简约实验风格的首支主打“Royals”,道尽对上流社会的不屑一顾,因为在平凡生活中也能活出志气与乐趣,荣登美国公告牌热门/流行/摇滚/另类/成人流行五大排行榜榜首及英国金榜冠军,继Tiffany的“I Think We’re Alone Now”之后、相隔25年再创公告牌最年轻女歌手夺冠纪录!全球销售突破300万张,入选「Samsung Galaxy Note 3」手机最新广告曲;向成天耍嘴皮、搬弄是非的人予以反击之作“Tennis Court”,有酷到骨子裡的女生豪情,二度摘下纽西兰后冠,成为新西兰乐史上第一位初登场连续两首歌曲夺冠的艺人;环绕浓烈电子颗粒并加强摇滚气流的“Team”,挺进全美摇滚和另类双榜TOP20;还有编织迷离声频的“Buzzcut Season”、微挑鼓譟但弥漫静谧氛围的“Still Sane”、沾染复古灵魂神韵的“White Teeth Teens”…等优选好歌。

这个来自新西兰的小女生用音乐证明她可以做自己的贵族,活得比梦想还伟大!





专辑曲目:

01 Tennis Court
02 400 Lux
03 Royals
04 Ribs
05 Buzzcut Season
06 Team
07 Glory And Gore
08 Still Sane
09 White Teeth Teens
10 A World Alone





Exact Audio Copy V1.3 from 2. September 2016

EAC 抓取日志文件从15. 五月 2021, 17:58

Lorde / Pure Heroine

使用驱动器:ASUS SDRW-08D2S-U Adapter: 1ID: 0

读取模式 : 可靠Secure
使用精确流 : 是
清空音频缓存 : 是
使用 C2 指示器 : 否

读取偏移校正: : 0
读取 Lead-In 和 Lead-Out : 否
用静音填充抓取中丢失偏移的采样 : 是
去除首尾静音块 : 否
在CRC 计算中使用了空样本 : 是
已用接口 : Win NT 及 2000 本地 Win32 接口

所用输出模式: : 内部 WAV 函数
样本格式 : 44.100 Hz; 16 Bit; 立体声


已抓取 CD 的 TOC

音轨 | 起始 | 长度 |起始扇区|结束扇区
--------------------------------------------
1 |0:00.00 |3:18.59 | 0 |14908
2 |3:18.59 |3:54.27 |14909 |32485
3 |7:13.11 |3:10.11 |32486 |46746
4 | 10:23.22 |4:18.73 |46747 |66169
5 | 14:42.20 |4:06.55 |66170 |84674
6 | 18:49.00 |3:13.03 |84675 |99152
7 | 22:02.03 |3:30.53 |99153 | 114955
8 | 25:32.56 |3:08.08 | 114956 | 129063
9 | 28:40.64 |3:36.44 | 129064 | 145307
10 | 32:17.33 |4:54.42 | 145308 | 167399


范围状态及错误

已选择范围

文件名 C:\Users\12751\Desktop\Lorde - Pure Heroine.wav

峰值电平 99.0 %
抓取速度 4.4 X
范围质量 99.9 %
复制 CRC F18C0A17
复制成功

没有错误发生

状态报告结尾

==== 记录校验日志 93E6B23AD6C110312A4744175CA4695A59C7FE1AA72CA10C174A9F89B8A33209 ====






专辑为自购,压缩包有封面,碟片的扫描图片。







链接:包年会员可查看
FLAC 主要作品 11/23
The Chainsmokers
FLAC 个人生活 11/24
ZAYN
FLAC 歌曲鉴赏 11/24
Charlie Puth
FLAC 早年经历 11/24
Troye Sivan
FLAC 专辑鉴赏 11/25
Lorde
FLAC 国外专业人士点评 11/25
Avril Lavigne
 
 
由于百度网盘原因,易导致资源失效,您可以在页面上提交失效申报,我们尽量修复!
网易&QQ音乐文件解锁 /